Skip to main content

Zony Mash Live at Hudson Tent - Knitting Factory Jazz Fest on 1998-06-03

Audio Preview

etree
Zony Mash Live at Hudson Tent - Knitting Factory Jazz Fest on 1998-06-03




Zony Mash
June 3, 1998
Hudson Tent - Knitting Factory Jazz Fest
NYC NY

Wayne Horvitz - keys
Tim Young - guitar
Fred Chalenor - bass
Andy Roth - drums

*** THIS IS A 16-BIT FILESET INTENDED FOR AUDIO CD ***

DISK ONE
01 Jam > Upper Egypt
02 Meet the Zony Mash
03 Slide By
04 Sex Fiend
05 Prudence RSVP


Collection WayneHorvitz
Band/Artist Wayne Horvitz
Venue Hudson Tent - Knitting Factory Jazz Fest
Location NYC NY

Source dsbd > sbm1 > tcd-d8 (16/48)
Lineage zefiro acoustics za-2 (dos) > soundforge 4.0 (tracking, resampling) > cdrwin > eac 0.95b5 > soundforge 8.0 (+2.2 dB) > flac 1.20a
Taped by peter w. king
Transferred by peter w. king

Notes

length expanded size cdr WAVE problems fmt ratio filename
7:50.52 83030348 B --- -- ---xx flac 0.4929 zonymash1998-06-03_dsbd_d1t01.flac
5:04.06 53639756 B --- -- ---xx flac 0.5204 zonymash1998-06-03_dsbd_d1t02.flac
9:05.68 96297980 B --- -- ---xx flac 0.5110 zonymash1998-06-03_dsbd_d1t03.flac
5:38.06 59637356 B --- -- ---xx flac 0.5325 zonymash1998-06-03_dsbd_d1t04.flac
7:45.36 82110716 B --- -- ---xx flac 0.4846 zonymash1998-06-03_dsbd_d1t05.flac
35:24.18 374716156 B 0.5060 (5 files)

NOTE: whereabouts of DAT master unknown. this is as good as it gets!

comment
Reviews

Reviewer: Halowdance - favoritefavoritefavoritefavoritefavorite - June 12, 2009
Subject: Meet the Zony Mash!
Truly a wonderful concert!
Thank you Peter, very good job. :-)
SIMILAR ITEMS (based on metadata)
Wayne Horvitz
by Wayne Horvitz
etree
eye 4,163
favorite 6
comment 1
favoritefavoritefavoritefavoritefavorite ( 1 reviews )
Source: csb > battery box > sbm1 > tcd-d8 (16/48)
Wayne Horvitz
by Wayne Horvitz
etree
eye 271
favorite 2
comment 0
Source: FM (Radio 3 RAI) > ITT HiFi4060 Tuner > PC
Wayne Horvitz
by Wayne Horvitz
etree
eye 632
favorite 0
comment 0
Source: SBD > DAT
Wayne Horvitz
etree
eye 107
favorite 1
comment 0
Source: AKG 414TLII (on-stage, set on omni, split 8') > DMIC-20 > DAT
Wayne Horvitz
by Wayne Horvitz
etree
eye 58
favorite 1
comment 0
Source: Sennheiser ME66 + Earthworks SR71 > P1 & Earthworks SR71 > P1
Wayne Horvitz
by Wayne Horvitz
etree
eye 107
favorite 2
comment 0
Source: AT 822 (foot of stage) + mono SBD > Mackie 1202 > Sony D6 (analog master)
Wayne Horvitz
by Wayne Horvitz
etree
eye 96
favorite 1
comment 0
Source: AT822 (on-stage) + SBD > Mackie 1202
Wayne Horvitz
by Wayne Horvitz
etree
eye 150
favorite 2
comment 0
Source: AT 822 (foot of stage) + mono SBD > Mackie 1202 > Sony D6 (analog master)
Wayne Horvitz
by Wayne Horvitz
etree
eye 137
favorite 1
comment 0
Source: AT 822 (foot of stage) + mono SBD > Mackie 1202 > Sony D6 (analog master)
Wayne Horvitz
by Wayne Horvitz
etree
eye 730
favorite 3
comment 3
favoritefavoritefavoritefavoritefavorite ( 3 reviews )
Source: mk4 DIN onstage, center > kc5 > cmc6 > SD722